<?xml version="1.0" standalone="no"?>
<!DOCTYPE svg PUBLIC "-//W3C//DTD SVG 1.1//EN" "http://www.w3.org/Graphics/SVG/1.1/DTD/svg11.dtd" >
<svg xmlns="http://www.w3.org/2000/svg" xmlns:xlink="http://www.w3.org/1999/xlink" version="1.1">
<metadata>
Created by FontForge 20161116 at Sat Oct 23 19:03:12 1999
 By Jimmy Wärting
(c)1999 ShyFonts Type Foundry
</metadata>
<defs>
<font id="SFFedoraTitles" horiz-adv-x="1706" >
  <font-face 
    font-family="SF Fedora Titles"
    font-weight="400"
    font-stretch="normal"
    units-per-em="2048"
    panose-1="0 0 4 0 0 0 0 0 0 0"
    ascent="1638"
    descent="-410"
    x-height="803"
    cap-height="1366"
    bbox="-168 -340 2099 1792"
    underline-thickness="17"
    underline-position="-119"
    unicode-range="U+0020-2122"
  />
<missing-glyph horiz-adv-x="1024" 
 />
    <glyph glyph-name=".notdef" horiz-adv-x="1024" 
 />
    <glyph glyph-name="exclam" unicode="!" horiz-adv-x="717" 
d="M256 0v205h205v-205h-205zM256 375v991h205v-991h-205z" />
    <glyph glyph-name="quotedbl" unicode="&#x22;" horiz-adv-x="989" 
d="M291 989v86h84v86h-119v205h205v-377h-170zM563 989v86h86v86h-121v205h205v-377h-170z" />
    <glyph glyph-name="numbersign" unicode="#" horiz-adv-x="1409" 
d="M627 1024l-15 -170h172l13 170h-170zM1139 1024h-170l-15 -170h170l-14 -172h-172l-14 -170h-170l14 170h-170l-16 -170h-170l14 170h-170l16 172h170l15 170h-172l16 170h170l16 172h170l-16 -172h172l14 172h172l-16 -172h170z" />
    <glyph glyph-name="dollar" unicode="$" 
d="M1245 547q0 33 -33 33h-256v-375h256q33 0 33 35v307zM752 1161h-256q-35 0 -35 -35v-307q0 -35 35 -35h256v377zM1450 205q0 -86 -60 -146q-59 -59 -145 -59h-289v-168h-204v168h-496v205h496v375h-359q-56 0 -97 41q-40 40 -40 96v444q0 86 59 145q60 60 146 60h291
v170h204v-170h494v-205h-494v-377h359q55 0 95 -40q40 -39 40 -95v-444v0z" />
    <glyph glyph-name="percent" unicode="%" horiz-adv-x="1878" 
d="M1417 444q0 33 -35 33h-204q-35 0 -35 -33v-204q0 -35 35 -35h204q35 0 35 35v204zM733 1126q0 35 -33 35h-204q-35 0 -35 -35v-204q0 -35 35 -35h204q33 0 33 35v204zM1622 205q0 -86 -60 -146q-59 -59 -145 -59h-274q-79 0 -144 59q-61 61 -61 146v272q0 10 1 20.5
t3 20.5l-414 -518h-272l559 700q-41 -18 -82 -18h-272q-85 0 -146 61q-59 65 -59 144v274q0 86 59 145q60 60 146 60h272q86 0 145 -60q60 -59 60 -145v-274v-21q0 -4 -0.5 -8.5t-1.5 -9.5l412 518h274l-561 -700q42 16 82 16h274q86 0 145 -60q60 -59 60 -145v-272v0z" />
    <glyph glyph-name="ampersand" unicode="&#x26;" horiz-adv-x="1878" 
d="M1245 580h-749q-35 0 -35 -33v-307q0 -35 35 -35h749v375zM1450 580v-580h-989q-85 0 -146 59q-59 61 -59 146v358q0 50 42 85q41 34 95 34q-52 0 -95 35q-42 34 -42 86v358q0 86 59 145q60 60 146 60h989v-205h-954q-35 0 -35 -35v-307q0 -35 35 -35h749v172h205v-172
h172v-204h-172z" />
    <glyph glyph-name="quotesingle" unicode="'" horiz-adv-x="717" 
d="M291 989v86h84v86h-119v205h205v-377h-170z" />
    <glyph glyph-name="parenleft" unicode="(" horiz-adv-x="860" 
d="M461 -168q-116 223 -160 410q-45 180 -45 440t43 442q47 192 162 412l143 -66q-45 -109 -76.5 -203.5t-48.5 -181.5q-17 -88 -26 -188t-9 -215t9 -215t26 -188q17 -87 48.5 -181t76.5 -200z" />
    <glyph glyph-name="parenright" unicode=")" horiz-adv-x="860" 
d="M604 682q0 -260 -45 -440q-44 -187 -160 -410l-143 66q45 106 77 200t48 181q17 88 26 188t9 215t-9 215t-26 188q-16 87 -48 181.5t-77 203.5l143 66q116 -224 160 -412q45 -180 45 -442z" />
    <glyph glyph-name="asterisk" unicode="*" horiz-adv-x="1208" 
d="M844 670l-154 129v-201h-172v201l-153 -129l-109 131l215 180l-215 182l109 131l153 -131v203h172v-203l154 131l108 -131l-215 -182l215 -180z" />
    <glyph glyph-name="plus" unicode="+" horiz-adv-x="1194" 
d="M682 598v-256h-170v256h-256v170h256v256h170v-256h256v-170h-256z" />
    <glyph glyph-name="comma" unicode="," horiz-adv-x="717" 
d="M291 -168v84h84v84h-119v205h205v-373h-170z" />
    <glyph glyph-name="hyphen" unicode="-" horiz-adv-x="1194" 
d="M256 598v170h682v-170h-682z" />
    <glyph glyph-name="hyphen" unicode="&#x2010;" horiz-adv-x="1194" 
d="M256 598v170h682v-170h-682z" />
    <glyph glyph-name="period" unicode="." horiz-adv-x="717" 
d="M256 0v205h205v-205h-205z" />
    <glyph glyph-name="slash" unicode="/" horiz-adv-x="840" 
d="M373 -174l-203 37l297 1679l203 -37z" />
    <glyph glyph-name="zero" unicode="0" 
d="M1245 1126q0 35 -33 35h-716q-35 0 -35 -35v-886q0 -35 35 -35h716q33 0 33 35v886zM1450 205q0 -86 -60 -146q-59 -59 -145 -59h-784q-85 0 -146 59q-59 61 -59 146v956q0 86 59 145q60 60 146 60h784q86 0 145 -60q60 -59 60 -145v-956v0z" />
    <glyph glyph-name="one" unicode="1" horiz-adv-x="717" 
d="M256 0v1366h205v-1366h-205z" />
    <glyph glyph-name="two" unicode="2" 
d="M256 0v649q0 56 40 95q40 40 97 40h819q33 0 33 35v307q0 35 -33 35h-956v205h989q86 0 145 -60q60 -59 60 -145v-444q0 -56 -40 -96q-41 -41 -95 -41h-819q-35 0 -35 -33v-342h989v-205h-1194z" />
    <glyph glyph-name="three" unicode="3" 
d="M1450 205q0 -86 -60 -146q-59 -59 -145 -59h-989v205h956q33 0 33 35v307q0 33 -33 33h-786v204h786q33 0 33 35v307q0 35 -33 35h-956v205h989q86 0 145 -60q60 -59 60 -145v-358q0 -51 -41 -86t-94 -35q54 0 94 -34q41 -35 41 -85v-358v0z" />
    <glyph glyph-name="four" unicode="4" 
d="M1245 0v272h-784q-84 0 -146 62q-59 64 -59 143v889h205v-854q0 -35 35 -35h749v889h205v-1366h-205z" />
    <glyph glyph-name="five" unicode="5" 
d="M1450 205q0 -86 -60 -146q-59 -59 -145 -59h-989v205h956q33 0 33 35v307q0 33 -33 33h-819q-56 0 -97 41q-40 40 -40 96v649h1194v-205h-989v-342q0 -35 35 -35h819q55 0 95 -40q40 -39 40 -95v-444v0z" />
    <glyph glyph-name="six" unicode="6" 
d="M1245 547q0 33 -33 33h-716q-35 0 -35 -33v-307q0 -35 35 -35h716q33 0 33 35v307zM1450 205q0 -86 -60 -146q-59 -59 -145 -59h-784q-85 0 -146 59q-59 61 -59 146v956q0 86 59 145q60 60 146 60h905v-205h-870q-35 0 -35 -35v-393q1 51 86 51h698q86 0 145 -59
q60 -59 60 -145v-375v0z" />
    <glyph glyph-name="seven" unicode="7" horiz-adv-x="1579" 
d="M520 0h-264l795 1161h-795v205h1194z" />
    <glyph glyph-name="eight" unicode="8" 
d="M1245 547q0 33 -33 33h-716q-35 0 -35 -33v-307q0 -35 35 -35h716q33 0 33 35v307zM1245 1126q0 35 -33 35h-716q-35 0 -35 -35v-307q0 -35 35 -35h716q33 0 33 35v307zM1450 205q0 -86 -60 -146q-59 -59 -145 -59h-784q-85 0 -146 59q-59 61 -59 146v358q0 53 42 86
t95 33q-54 0 -95 34q-42 34 -42 87v358q0 86 59 145q60 60 146 60h784q86 0 145 -60q60 -59 60 -145v-358q0 -52 -41 -87q-40 -34 -94 -34q53 0 94 -33t41 -86v-358v0z" />
    <glyph glyph-name="nine" unicode="9" 
d="M1245 1126q0 35 -33 35h-716q-35 0 -35 -35v-307q0 -35 35 -35h716q33 0 33 35v307zM1450 205q0 -86 -60 -146q-59 -59 -145 -59h-903v205h870q33 0 33 35v391q0 -51 -84 -51h-700q-85 0 -146 61q-59 65 -59 143v377q0 86 59 145q60 60 146 60h784q86 0 145 -60
q60 -59 60 -145v-956v0z" />
    <glyph glyph-name="colon" unicode=":" horiz-adv-x="717" 
d="M256 0v205h205v-205h-205zM256 819v205h205v-205h-205z" />
    <glyph glyph-name="semicolon" unicode=";" horiz-adv-x="717" 
d="M291 -168v84h84v84h-119v205h205v-373h-170zM256 819v205h205v-205h-205z" />
    <glyph glyph-name="less" unicode="&#x3c;" horiz-adv-x="1008" 
d="M512 256l-256 426l256 428h240l-256 -428l256 -426h-240z" />
    <glyph glyph-name="equal" unicode="=" horiz-adv-x="1194" 
d="M256 426v172h682v-172h-682zM256 768v170h682v-170h-682z" />
    <glyph glyph-name="greater" unicode="&#x3e;" horiz-adv-x="1008" 
d="M496 256h-240l256 426l-256 428h240l256 -428z" />
    <glyph glyph-name="question" unicode="?" horiz-adv-x="1442" 
d="M256 0v205h205v-205h-205zM1229 717q0 -56 -40 -96q-41 -41 -97 -41h-596q-35 0 -35 -33v-172h-205v274q0 56 40 95q40 40 97 40h596q35 0 35 35v307q0 35 -35 35h-733v205h768q86 0 145 -60q60 -59 60 -145v-444v0z" />
    <glyph glyph-name="at" unicode="@" 
d="M1026 672l-293 -88q-51 -15 -51 -49q0 -25 25 -25h292q27 0 27 27v135zM461 86q-85 0 -146 59q-59 61 -59 146v784q0 86 59 145q60 60 146 60h784q86 0 145 -60q60 -59 60 -145v-487q0 -86 -60 -146q-59 -59 -145 -59h-219v39q0 -39 -63 -39h-256q-62 0 -108 46t-46 108
v45q0 67 72 90l401 127v18q0 39 -27 39h-292q-31 0 -25 -90h-129v63q0 64 45 109t109 45h292q64 0 109 -45t45 -109v-319h92q35 0 35 35v530q0 35 -35 35h-784q-35 0 -35 -35v-784q0 -35 35 -35h989v-170h-989z" />
    <glyph glyph-name="A" unicode="A" 
d="M1245 1126q0 35 -33 35h-716q-35 0 -35 -35v-444h784v444zM1245 0v477h-784v-477h-205v1161q0 86 59 145q60 60 146 60h784q86 0 145 -60q60 -59 60 -145v-1161h-205z" />
    <glyph glyph-name="B" unicode="B" 
d="M1245 547q0 33 -33 33h-751v-375h751q33 0 33 35v307zM1245 1126q0 35 -33 35h-751v-377h751q33 0 33 35v307zM1450 205q0 -86 -60 -146q-59 -59 -145 -59h-989v1366h989q86 0 145 -60q60 -59 60 -145v-358q0 -52 -41 -87q-40 -34 -94 -34q53 0 94 -33t41 -86v-358v0z
" />
    <glyph glyph-name="C" unicode="C" 
d="M461 0q-85 0 -146 59q-59 61 -59 146v956q0 86 59 145q60 60 146 60h989v-205h-954q-35 0 -35 -35v-886q0 -35 35 -35h954v-205h-989z" />
    <glyph glyph-name="D" unicode="D" 
d="M1245 1126q0 35 -33 35h-751v-956h751q33 0 33 35v886zM1450 205q0 -86 -60 -146q-59 -59 -145 -59h-989v1366h989q86 0 145 -60q60 -59 60 -145v-956v0z" />
    <glyph glyph-name="E" unicode="E" 
d="M461 0q-85 0 -146 59q-59 61 -59 146v956q0 86 59 145q60 60 146 60h989v-205h-954q-35 0 -35 -35v-342h819v-204h-819v-340q0 -35 35 -35h954v-205h-989z" />
    <glyph glyph-name="F" unicode="F" horiz-adv-x="1622" 
d="M496 1161q-35 0 -35 -35v-342h819v-204h-819v-580h-205v1161q0 86 59 145q60 60 146 60h989v-205h-954z" />
    <glyph glyph-name="G" unicode="G" 
d="M461 0q-85 0 -146 59q-59 61 -59 146v956q0 86 59 145q60 60 146 60h989v-205h-954q-35 0 -35 -35v-886q0 -35 35 -35h749v375h-477v204h682v-784h-989z" />
    <glyph glyph-name="H" unicode="H" 
d="M1245 0v580h-784v-580h-205v1366h205v-582h784v582h205v-1366h-205z" />
    <glyph glyph-name="I" unicode="I" horiz-adv-x="717" 
d="M256 0v1366h205v-1366h-205z" />
    <glyph glyph-name="J" unicode="J" horiz-adv-x="1110" 
d="M854 205q0 -86 -60 -146q-59 -59 -145 -59h-479v205h444q35 0 35 35v1126h205v-1161v0z" />
    <glyph glyph-name="K" unicode="K" horiz-adv-x="1622" 
d="M1194 0l-381 580h-352v-580h-205v1366h205v-582h352l381 582h256l-442 -684l442 -682h-256z" />
    <glyph glyph-name="L" unicode="L" horiz-adv-x="1110" 
d="M256 0v1366h205v-1161h477v-205h-682z" />
    <glyph glyph-name="M" unicode="M" horiz-adv-x="2048" 
d="M1587 0v1126q0 35 -35 35h-391q-35 0 -35 -35v-1126h-204v1126q0 35 -35 35h-391q-35 0 -35 -35v-1126h-205v1161q0 86 59 145q60 60 146 60h409q48 0 99 -45q50 -46 55 -92q0 45 53 92q52 45 101 45h409q86 0 145 -60q60 -59 60 -145v-1161h-205z" />
    <glyph glyph-name="N" unicode="N" 
d="M1245 0l-784 995v-995h-205v1366h205l784 -993v993h205v-1366h-205z" />
    <glyph glyph-name="O" unicode="O" 
d="M1245 1126q0 35 -33 35h-716q-35 0 -35 -35v-886q0 -35 35 -35h716q33 0 33 35v886zM1450 205q0 -86 -60 -146q-59 -59 -145 -59h-784q-85 0 -146 59q-59 61 -59 146v956q0 86 59 145q60 60 146 60h784q86 0 145 -60q60 -59 60 -145v-956v0z" />
    <glyph glyph-name="P" unicode="P" horiz-adv-x="1622" 
d="M1245 1126q0 35 -33 35h-751v-479h751q33 0 33 35v409zM1450 682q0 -82 -61 -143q-60 -62 -144 -62h-784v-477h-205v1366h989q86 0 145 -60q60 -59 60 -145v-479v0z" />
    <glyph glyph-name="Q" unicode="Q" 
d="M1245 1126q0 35 -33 35h-716q-35 0 -35 -35v-886q0 -35 35 -35h716q33 0 33 35v886zM461 0q-85 0 -146 59q-59 61 -59 146v956q0 86 59 145q60 60 146 60h784q86 0 145 -60q60 -59 60 -145v-905q0 -50 -51 -51h137v-205h-1075z" />
    <glyph glyph-name="R" unicode="R" 
d="M1245 1126q0 35 -33 35h-751v-377h751q33 0 33 35v307zM1194 0l-403 580h-330v-580h-205v1366h989q86 0 145 -60q60 -59 60 -145v-377q0 -82 -61 -143q-60 -61 -144 -61h-198l403 -580h-256z" />
    <glyph glyph-name="S" unicode="S" 
d="M1450 205q0 -86 -60 -146q-59 -59 -145 -59h-989v205h956q33 0 33 35v307q0 33 -33 33h-819q-56 0 -97 41q-40 40 -40 96v444q0 86 59 145q60 60 146 60h989v-205h-954q-35 0 -35 -35v-307q0 -35 35 -35h819q55 0 95 -40q40 -39 40 -95v-444v0z" />
    <glyph glyph-name="T" unicode="T" horiz-adv-x="1366" 
d="M784 1161v-1161h-204v1161h-410v205h1024v-205h-410z" />
    <glyph glyph-name="U" unicode="U" 
d="M1450 205q0 -86 -60 -146q-59 -59 -145 -59h-784q-85 0 -146 59q-59 61 -59 146v1161h205v-1126q0 -35 35 -35h716q33 0 33 35v1126h205v-1161v0z" />
    <glyph glyph-name="V" unicode="V" horiz-adv-x="1501" 
d="M879 0h-256l-453 1366h223l359 -1075l358 1075h221z" />
    <glyph glyph-name="W" unicode="W" horiz-adv-x="2048" 
d="M1792 205q0 -86 -60 -146q-59 -59 -145 -59h-409q-49 0 -101 45q-53 47 -53 92q0 -45 -53 -92q-51 -45 -101 -45h-409q-85 0 -146 59q-59 61 -59 146v1161h205v-1126q0 -35 35 -35h391q35 0 35 35v1126h204v-1126q0 -35 35 -35h410q33 0 33 35v1126h188v-1161v0z" />
    <glyph glyph-name="X" unicode="X" horiz-adv-x="1536" 
d="M1110 0l-342 498l-342 -498h-256l471 682l-471 684h256l342 -498l342 498h256l-469 -684l469 -682h-256z" />
    <glyph glyph-name="Y" unicode="Y" horiz-adv-x="1366" 
d="M784 649v-649h-204v649l-494 717h256l340 -498l342 498h256z" />
    <glyph glyph-name="Z" unicode="Z" 
d="M256 0l795 1161h-795v205h1194l-793 -1161h793v-205h-1194z" />
    <glyph glyph-name="bracketleft" unicode="[" horiz-adv-x="973" 
d="M256 -168v1704h461v-205h-256v-1296h256v-203h-461z" />
    <glyph glyph-name="backslash" unicode="\" horiz-adv-x="840" 
d="M467 -174l-297 1679l203 37l297 -1679z" />
    <glyph glyph-name="bracketright" unicode="]" horiz-adv-x="973" 
d="M256 -168v203h256v1296h-256v205h461v-1704h-461z" />
    <glyph glyph-name="asciicircum" unicode="^" horiz-adv-x="1024" 
d="M512 1194l-256 -84v84l256 172l256 -172v-84z" />
    <glyph glyph-name="underscore" unicode="_" horiz-adv-x="1024" 
d="M-168 -168v168h1362v-168h-1362z" />
    <glyph glyph-name="grave" unicode="`" horiz-adv-x="938" 
d="M256 1536v170l426 -170v-86z" />
    <glyph glyph-name="a" unicode="a" horiz-adv-x="1229" 
d="M846 385l-391 -117q-70 -19 -70 -65q0 -33 33 -33h393q35 0 35 35v180zM846 0v51q0 -51 -86 -51h-342q-85 0 -146 59q-59 61 -59 146v61q0 87 96 119l537 172v23q0 51 -35 51h-393q-33 0 -33 -33v-86h-172v86q0 86 59 145q60 60 146 60h393q86 0 145 -60q60 -59 60 -145
v-598h-170z" />
    <glyph glyph-name="b" unicode="b" horiz-adv-x="1229" 
d="M846 598q0 33 -35 33h-393q-33 0 -33 -33v-393q0 -35 33 -35h393q35 0 35 35v393zM1016 205q0 -86 -60 -146q-59 -59 -145 -59h-342q-84 0 -84 51v-51h-172v1366h172v-614q0 51 84 51h342q86 0 145 -60q60 -59 60 -145v-393v0z" />
    <glyph glyph-name="c" unicode="c" horiz-adv-x="1229" 
d="M418 0q-85 0 -146 59q-59 61 -59 146v393q0 86 59 145q60 60 146 60h598v-172h-598q-33 0 -33 -33v-393q0 -35 33 -35h598v-170h-598z" />
    <glyph glyph-name="d" unicode="d" horiz-adv-x="1229" 
d="M846 598q0 33 -35 33h-393q-33 0 -33 -33v-393q0 -35 33 -35h393q35 0 35 35v393zM846 0v51q-2 -51 -86 -51h-342q-85 0 -146 59q-59 61 -59 146v393q0 86 59 145q60 60 146 60h342q84 0 86 -51v614h170v-1366h-170z" />
    <glyph glyph-name="e" unicode="e" horiz-adv-x="1229" 
d="M418 0q-85 0 -146 59q-59 61 -59 146v393q0 86 59 145q60 60 146 60h393q86 0 145 -60q60 -59 60 -145v-78q0 -86 -60 -146q-59 -59 -145 -59h-307v172h307q35 0 35 33v78q0 33 -35 33h-393q-33 0 -33 -33v-393q0 -35 33 -35h598v-170h-598z" />
    <glyph glyph-name="f" unicode="f" horiz-adv-x="946" 
d="M555 1194q-35 0 -35 -33v-358h172v-172h-172v-631h-170v631h-137v172h137v358q0 86 59 145q60 60 146 60h221v-172h-221z" />
    <glyph glyph-name="g" unicode="g" horiz-adv-x="1229" 
d="M846 598q0 33 -35 33h-393q-33 0 -33 -33v-393q0 -35 33 -35h393q35 0 35 35v393zM1016 -135q0 -87 -60 -145q-59 -60 -145 -60h-426v172h426q35 0 35 33v186q-2 -51 -86 -51h-342q-85 0 -146 59q-59 61 -59 146v393q0 86 59 145q60 60 146 60h342q84 0 86 -51v51h170
v-938v0z" />
    <glyph glyph-name="h" unicode="h" horiz-adv-x="1229" 
d="M846 0v598q0 33 -35 33h-393q-33 0 -33 -33v-598h-172v1366h172v-614q0 51 84 51h342q86 0 145 -60q60 -59 60 -145v-598h-170z" />
    <glyph glyph-name="i" unicode="i" horiz-adv-x="598" 
d="M213 0v803h172v-803h-172zM213 887v172h172v-172h-172z" />
    <glyph glyph-name="j" unicode="j" horiz-adv-x="598" 
d="M213 -340v1143h172v-1143h-172zM213 887v172h172v-172h-172z" />
    <glyph glyph-name="k" unicode="k" horiz-adv-x="1143" 
d="M811 0l-236 315h-190v-315h-172v1366h172v-879h190l236 316h205l-299 -402l299 -401h-205z" />
    <glyph glyph-name="l" unicode="l" horiz-adv-x="598" 
d="M213 0v1366h172v-1366h-172z" />
    <glyph glyph-name="m" unicode="m" horiz-adv-x="1520" 
d="M1135 0v598q0 33 -33 33h-223q-33 0 -33 -33v-598h-172v598q0 33 -33 33h-223q-33 0 -33 -33v-598h-172v803h172v-51q0 51 84 51h172q86 0 119 -58q43 58 119 58h223q81 0 143 -62q62 -59 62 -143v-598h-172z" />
    <glyph glyph-name="n" unicode="n" horiz-adv-x="1229" 
d="M846 0v598q0 33 -35 33h-393q-33 0 -33 -33v-598h-172v803h172v-51q0 51 84 51h342q86 0 145 -60q60 -59 60 -145v-598h-170z" />
    <glyph glyph-name="o" unicode="o" horiz-adv-x="1229" 
d="M846 598q0 33 -35 33h-393q-33 0 -33 -33v-393q0 -35 33 -35h393q35 0 35 35v393zM1016 205q0 -86 -60 -146q-59 -59 -145 -59h-393q-85 0 -146 59q-59 61 -59 146v393q0 86 59 145q60 60 146 60h393q86 0 145 -60q60 -59 60 -145v-393v0z" />
    <glyph glyph-name="p" unicode="p" horiz-adv-x="1229" 
d="M846 598q0 33 -35 33h-393q-33 0 -33 -33v-393q0 -35 33 -35h393q35 0 35 35v393zM1016 205q0 -86 -60 -146q-59 -59 -145 -59h-342q-84 0 -84 51v-391h-172v1143h172v-51q0 51 84 51h342q86 0 145 -60q60 -59 60 -145v-393v0z" />
    <glyph glyph-name="q" unicode="q" horiz-adv-x="1229" 
d="M846 598q0 33 -35 33h-393q-33 0 -33 -33v-393q0 -35 33 -35h393q35 0 35 35v393zM846 -340v391q-2 -51 -86 -51h-342q-85 0 -146 59q-59 61 -59 146v393q0 86 59 145q60 60 146 60h342q84 0 86 -51v51h170v-1143h-170z" />
    <glyph glyph-name="r" unicode="r" horiz-adv-x="811" 
d="M418 631q-33 0 -33 -33v-598h-172v803h172v-51q0 51 84 51h213v-172h-264z" />
    <glyph glyph-name="s" unicode="s" horiz-adv-x="1229" 
d="M1016 205q0 -86 -60 -146q-59 -59 -145 -59h-598v170h598q35 0 35 35v78q0 32 -35 32h-461q-57 0 -97 40t-40 98v145q0 86 59 145q60 60 146 60h598v-172h-598q-33 0 -33 -33v-78q0 -33 33 -33h461q56 0 97 -41q40 -40 40 -96v-145v0z" />
    <glyph glyph-name="t" unicode="t" horiz-adv-x="989" 
d="M555 0q-85 0 -146 59q-59 61 -59 146v426h-137v172h137v391h170v-391h172v-172h-172v-426q0 -35 35 -35h221v-170h-221z" />
    <glyph glyph-name="u" unicode="u" horiz-adv-x="1229" 
d="M846 0v51q0 -51 -86 -51h-342q-85 0 -146 59q-59 61 -59 146v598h172v-598q0 -35 33 -35h393q35 0 35 35v598h170v-803h-170z" />
    <glyph glyph-name="v" unicode="v" horiz-adv-x="1059" 
d="M614 0h-170l-315 803h170l229 -586l232 586h170z" />
    <glyph glyph-name="w" unicode="w" horiz-adv-x="1520" 
d="M1135 0v51q0 -51 -84 -51h-172q-86 0 -119 57q-44 -57 -119 -57h-223q-85 0 -146 59q-59 61 -59 146v598h172v-598q0 -35 33 -35h223q33 0 33 35v598h172v-598q0 -35 33 -35h223q33 0 33 35v598h172v-803h-172z" />
    <glyph glyph-name="x" unicode="x" horiz-adv-x="1059" 
d="M725 0l-197 262l-194 -262h-205l297 401l-297 402h205l194 -264l197 264h205l-299 -402l299 -401h-205z" />
    <glyph glyph-name="y" unicode="y" horiz-adv-x="1229" 
d="M1016 -135q0 -87 -60 -145q-59 -60 -145 -60h-426v172h426q35 0 35 33v186q-2 -51 -86 -51h-342q-85 0 -146 59q-59 61 -59 146v598h172v-598q0 -35 33 -35h393q35 0 35 35v598h170v-938v0z" />
    <glyph glyph-name="z" unicode="z" horiz-adv-x="1229" 
d="M213 0l471 631h-471v172h803l-471 -633h471v-170h-803z" />
    <glyph glyph-name="braceleft" unicode="{" horiz-adv-x="1092" 
d="M631 -168q-41 0 -78 16.5t-65.5 44t-45 64.5t-16.5 78v391q0 36 -13.5 67.5t-37 54.5t-54.5 36.5t-65 13.5v170q70 0 120 50t50 120v393q0 84 61 144q61 61 144 61h205v-205h-170q-35 0 -35 -35v-442q0 -70 -51 -121q-50 -51 -119 -51q69 0 119 -50q51 -50 51 -120v-444
q0 -33 35 -33h170v-203h-205z" />
    <glyph glyph-name="bar" unicode="|" horiz-adv-x="717" 
d="M256 -168v1704h205v-1704h-205z" />
    <glyph glyph-name="braceright" unicode="}" horiz-adv-x="1092" 
d="M836 598q-35 0 -66 -13.5t-54 -36.5t-36.5 -54.5t-13.5 -67.5v-391q0 -84 -62 -141q-59 -62 -143 -62h-205v203h170q35 0 35 33v444q0 70 50 120t120 50q-71 0 -120 51q-50 52 -50 121v442q0 35 -35 35h-170v205h205q86 0 145 -60q60 -59 60 -145v-393q0 -70 50 -120
t120 -50v-170v0z" />
    <glyph glyph-name="asciitilde" unicode="~" horiz-adv-x="1126" 
d="M870 1194q-80 -84 -204 -84q-42 0 -103 41q-58 43 -102 43q-121 0 -205 -84v170q83 86 205 86q44 0 102 -43t103 -43q124 0 204 86v-172v0z" />
    <glyph glyph-name="Adieresis" unicode="&#xc4;" 
d="M1245 1126q0 35 -33 35h-716q-35 0 -35 -35v-444h784v444zM1245 0v477h-784v-477h-205v1161q0 86 59 145q60 60 146 60h784q86 0 145 -60q60 -59 60 -145v-1161h-205zM768 1579q0 -53 -38 -91t-89 -38q-53 0 -91 38t-38 91q0 52 38 90q37 37 91 37q52 0 89 -37
q38 -38 38 -90zM1194 1579q0 -54 -37 -91q-38 -38 -90 -38q-53 0 -91 38t-38 91q0 52 38 90q37 37 91 37q53 0 90 -37t37 -90z" />
    <glyph glyph-name="Aring" unicode="&#xc5;" 
d="M1245 1126q0 35 -33 35h-716q-35 0 -35 -35v-444h784v444zM938 1622q0 16 -7 31.5t-18.5 27t-27 18.5t-31.5 7q-37 0 -61.5 -24.5t-24.5 -59.5q0 -37 24.5 -61.5t61.5 -24.5q35 0 59.5 24.5t24.5 61.5zM1245 0v477h-784v-477h-205v1161q0 86 59 145q60 60 146 60h784
q86 0 145 -60q60 -59 60 -145v-1161h-205zM1024 1622q0 -69 -50 -121q-50 -51 -120 -51t-121 51t-51 121t51 120q52 50 121 50q70 0 120 -50t50 -120z" />
    <glyph glyph-name="Eacute" unicode="&#xc9;" 
d="M461 0q-85 0 -146 59q-59 61 -59 146v956q0 86 59 145q60 60 146 60h989v-205h-954q-35 0 -35 -35v-342h819v-204h-819v-340q0 -35 35 -35h954v-205h-989zM897 1450v86l426 170v-170z" />
    <glyph glyph-name="Ntilde" unicode="&#xd1;" 
d="M1245 0l-784 995v-995h-205v1366h205l784 -993v993h205v-1366h-205zM1161 1536q-80 -86 -205 -86q-46 0 -102 43q-58 43 -102 43q-122 0 -205 -86v172q84 84 205 84q44 0 102 -43q59 -41 102 -41q125 0 205 84v-170v0z" />
    <glyph glyph-name="Odieresis" unicode="&#xd6;" 
d="M1245 1126q0 35 -33 35h-716q-35 0 -35 -35v-886q0 -35 35 -35h716q33 0 33 35v886zM1450 205q0 -86 -60 -146q-59 -59 -145 -59h-784q-85 0 -146 59q-59 61 -59 146v956q0 86 59 145q60 60 146 60h784q86 0 145 -60q60 -59 60 -145v-956v0zM768 1579q0 -53 -38 -91
t-89 -38q-53 0 -91 38t-38 91q0 52 38 90q37 37 91 37q52 0 89 -37q38 -38 38 -90zM1194 1579q0 -54 -37 -91q-38 -38 -90 -38q-53 0 -91 38t-38 91q0 52 38 90q37 37 91 37q53 0 90 -37t37 -90z" />
    <glyph glyph-name="Udieresis" unicode="&#xdc;" 
d="M1450 205q0 -86 -60 -146q-59 -59 -145 -59h-784q-85 0 -146 59q-59 61 -59 146v1161h205v-1126q0 -35 35 -35h716q33 0 33 35v1126h205v-1161v0zM768 1579q0 -53 -38 -91t-89 -38q-53 0 -91 38t-38 91q0 52 38 90q37 37 91 37q52 0 89 -37q38 -38 38 -90zM1194 1579
q0 -54 -37 -91q-38 -38 -90 -38q-53 0 -91 38t-38 91q0 52 38 90q37 37 91 37q53 0 90 -37t37 -90z" />
    <glyph glyph-name="aacute" unicode="&#xe1;" horiz-adv-x="1229" 
d="M846 385l-391 -117q-70 -19 -70 -65q0 -33 33 -33h393q35 0 35 35v180zM846 0v51q0 -51 -86 -51h-342q-85 0 -146 59q-59 61 -59 146v61q0 87 96 119l537 172v23q0 51 -35 51h-393q-33 0 -33 -33v-86h-172v86q0 86 59 145q60 60 146 60h393q86 0 145 -60q60 -59 60 -145
v-598h-170zM571 887v86l428 170v-170z" />
    <glyph glyph-name="agrave" unicode="&#xe0;" horiz-adv-x="1229" 
d="M846 385l-391 -117q-70 -19 -70 -65q0 -33 33 -33h393q35 0 35 35v180zM846 0v51q0 -51 -86 -51h-342q-85 0 -146 59q-59 61 -59 146v61q0 87 96 119l537 172v23q0 51 -35 51h-393q-33 0 -33 -33v-86h-172v86q0 86 59 145q60 60 146 60h393q86 0 145 -60q60 -59 60 -145
v-598h-170zM231 973v170l426 -170v-86z" />
    <glyph glyph-name="acircumflex" unicode="&#xe2;" horiz-adv-x="1229" 
d="M846 385l-391 -117q-70 -19 -70 -65q0 -33 33 -33h393q35 0 35 35v180zM846 0v51q0 -51 -86 -51h-342q-85 0 -146 59q-59 61 -59 146v61q0 87 96 119l537 172v23q0 51 -35 51h-393q-33 0 -33 -33v-86h-172v86q0 86 59 145q60 60 146 60h393q86 0 145 -60q60 -59 60 -145
v-598h-170zM614 973l-256 -86v86l256 170l256 -170v-86z" />
    <glyph glyph-name="adieresis" unicode="&#xe4;" horiz-adv-x="1229" 
d="M846 385l-391 -117q-70 -19 -70 -65q0 -33 33 -33h393q35 0 35 35v180zM846 0v51q0 -51 -86 -51h-342q-85 0 -146 59q-59 61 -59 146v61q0 87 96 119l537 172v23q0 51 -35 51h-393q-33 0 -33 -33v-86h-172v86q0 86 59 145q60 60 146 60h393q86 0 145 -60q60 -59 60 -145
v-598h-170zM528 1016q0 -54 -37 -91q-36 -38 -90 -38q-53 0 -91 38t-38 91q0 52 38 90q37 37 91 37t90 -37q37 -37 37 -90zM956 1016q0 -53 -38 -91t-91 -38q-52 0 -90 38q-37 37 -37 91q0 53 37 90t90 37q54 0 91 -37q38 -38 38 -90z" />
    <glyph glyph-name="atilde" unicode="&#xe3;" horiz-adv-x="1229" 
d="M846 385l-391 -117q-70 -19 -70 -65q0 -33 33 -33h393q35 0 35 35v180zM846 0v51q0 -51 -86 -51h-342q-85 0 -146 59q-59 61 -59 146v61q0 87 96 119l537 172v23q0 51 -35 51h-393q-33 0 -33 -33v-86h-172v86q0 86 59 145q60 60 146 60h393q86 0 145 -60q60 -59 60 -145
v-598h-170zM922 973q-80 -86 -205 -86q-45 0 -103 43t-102 43q-122 0 -205 -86v172q84 84 205 84q44 0 102 -43q61 -41 103 -41q125 0 205 84v-170v0z" />
    <glyph glyph-name="aring" unicode="&#xe5;" horiz-adv-x="1229" 
d="M846 385l-391 -117q-70 -19 -70 -65q0 -33 33 -33h393q35 0 35 35v180zM700 1059q0 16 -7 31.5t-18.5 27t-27 18.5t-33.5 7q-17 0 -32.5 -6.5t-27.5 -18t-19 -26.5t-7 -33q0 -37 26 -61.5t60 -24.5q37 0 61.5 24.5t24.5 61.5zM846 0v51q0 -51 -86 -51h-342q-85 0 -146 59
q-59 61 -59 146v61q0 87 96 119l537 172v23q0 51 -35 51h-393q-33 0 -33 -33v-86h-172v86q0 86 59 145q60 60 146 60h393q86 0 145 -60q60 -59 60 -145v-598h-170zM784 1059q0 -69 -50 -121q-50 -51 -120 -51q-69 0 -120 51q-50 52 -50 121t50 119q51 51 120 51
q70 0 120 -51q50 -50 50 -119z" />
    <glyph glyph-name="eacute" unicode="&#xe9;" horiz-adv-x="1229" 
d="M418 0q-85 0 -146 59q-59 61 -59 146v393q0 86 59 145q60 60 146 60h393q86 0 145 -60q60 -59 60 -145v-78q0 -86 -60 -146q-59 -59 -145 -59h-307v172h307q35 0 35 33v78q0 33 -35 33h-393q-33 0 -33 -33v-393q0 -35 33 -35h598v-170h-598zM571 887v86l428 170v-170z
" />
    <glyph glyph-name="egrave" unicode="&#xe8;" horiz-adv-x="1229" 
d="M418 0q-85 0 -146 59q-59 61 -59 146v393q0 86 59 145q60 60 146 60h393q86 0 145 -60q60 -59 60 -145v-78q0 -86 -60 -146q-59 -59 -145 -59h-307v172h307q35 0 35 33v78q0 33 -35 33h-393q-33 0 -33 -33v-393q0 -35 33 -35h598v-170h-598zM231 973v170l426 -170v-86z
" />
    <glyph glyph-name="ecircumflex" unicode="&#xea;" horiz-adv-x="1229" 
d="M418 0q-85 0 -146 59q-59 61 -59 146v393q0 86 59 145q60 60 146 60h393q86 0 145 -60q60 -59 60 -145v-78q0 -86 -60 -146q-59 -59 -145 -59h-307v172h307q35 0 35 33v78q0 33 -35 33h-393q-33 0 -33 -33v-393q0 -35 33 -35h598v-170h-598zM614 973l-256 -86v86l256 170
l256 -170v-86z" />
    <glyph glyph-name="edieresis" unicode="&#xeb;" horiz-adv-x="1229" 
d="M418 0q-85 0 -146 59q-59 61 -59 146v393q0 86 59 145q60 60 146 60h393q86 0 145 -60q60 -59 60 -145v-78q0 -86 -60 -146q-59 -59 -145 -59h-307v172h307q35 0 35 33v78q0 33 -35 33h-393q-33 0 -33 -33v-393q0 -35 33 -35h598v-170h-598zM528 1016q0 -54 -37 -91
q-36 -38 -90 -38q-53 0 -91 38t-38 91q0 52 38 90q37 37 91 37t90 -37q37 -37 37 -90zM956 1016q0 -53 -38 -91t-91 -38q-52 0 -90 38q-37 37 -37 91q0 53 37 90t90 37q54 0 91 -37q38 -38 38 -90z" />
    <glyph glyph-name="iacute" unicode="&#xed;" horiz-adv-x="639" 
d="M256 0v803h170v-803h-170zM256 887v86l426 170v-170z" />
    <glyph glyph-name="igrave" unicode="&#xec;" horiz-adv-x="598" 
d="M213 0v803h172v-803h-172zM-41 973v170l426 -170v-86z" />
    <glyph glyph-name="icircumflex" unicode="&#xee;" horiz-adv-x="768" 
d="M299 0v803h170v-803h-170zM385 973l-256 -86v86l256 170l256 -170v-86z" />
    <glyph glyph-name="idieresis" unicode="&#xef;" horiz-adv-x="768" 
d="M299 0v803h170v-803h-170zM299 1016q0 -53 -38 -91t-91 -38q-51 0 -89 38t-38 91q0 52 38 90q37 37 89 37q54 0 91 -37q38 -38 38 -90zM725 1016q0 -54 -37 -91q-38 -38 -90 -38q-53 0 -91 38t-38 91q0 52 38 90q37 37 91 37q53 0 90 -37t37 -90z" />
    <glyph glyph-name="ntilde" unicode="&#xf1;" horiz-adv-x="1229" 
d="M846 0v598q0 33 -35 33h-393q-33 0 -33 -33v-598h-172v803h172v-51q0 51 84 51h342q86 0 145 -60q60 -59 60 -145v-598h-170zM922 973q-80 -86 -205 -86q-45 0 -103 43t-102 43q-122 0 -205 -86v172q84 84 205 84q44 0 102 -43q61 -41 103 -41q125 0 205 84v-170v0z" />
    <glyph glyph-name="oacute" unicode="&#xf3;" horiz-adv-x="1229" 
d="M846 598q0 33 -35 33h-393q-33 0 -33 -33v-393q0 -35 33 -35h393q35 0 35 35v393zM1016 205q0 -86 -60 -146q-59 -59 -145 -59h-393q-85 0 -146 59q-59 61 -59 146v393q0 86 59 145q60 60 146 60h393q86 0 145 -60q60 -59 60 -145v-393v0zM571 887v86l428 170v-170z" />
    <glyph glyph-name="ograve" unicode="&#xf2;" horiz-adv-x="1229" 
d="M846 598q0 33 -35 33h-393q-33 0 -33 -33v-393q0 -35 33 -35h393q35 0 35 35v393zM1016 205q0 -86 -60 -146q-59 -59 -145 -59h-393q-85 0 -146 59q-59 61 -59 146v393q0 86 59 145q60 60 146 60h393q86 0 145 -60q60 -59 60 -145v-393v0zM231 973v170l426 -170v-86z" />
    <glyph glyph-name="ocircumflex" unicode="&#xf4;" horiz-adv-x="1229" 
d="M846 598q0 33 -35 33h-393q-33 0 -33 -33v-393q0 -35 33 -35h393q35 0 35 35v393zM1016 205q0 -86 -60 -146q-59 -59 -145 -59h-393q-85 0 -146 59q-59 61 -59 146v393q0 86 59 145q60 60 146 60h393q86 0 145 -60q60 -59 60 -145v-393v0zM614 973l-256 -86v86l256 170
l256 -170v-86z" />
    <glyph glyph-name="odieresis" unicode="&#xf6;" horiz-adv-x="1229" 
d="M846 598q0 33 -35 33h-393q-33 0 -33 -33v-393q0 -35 33 -35h393q35 0 35 35v393zM1016 205q0 -86 -60 -146q-59 -59 -145 -59h-393q-85 0 -146 59q-59 61 -59 146v393q0 86 59 145q60 60 146 60h393q86 0 145 -60q60 -59 60 -145v-393v0zM528 1016q0 -54 -37 -91
q-36 -38 -90 -38q-53 0 -91 38t-38 91q0 52 38 90q37 37 91 37t90 -37q37 -37 37 -90zM956 1016q0 -53 -38 -91t-91 -38q-52 0 -90 38q-37 37 -37 91q0 53 37 90t90 37q54 0 91 -37q38 -38 38 -90z" />
    <glyph glyph-name="otilde" unicode="&#xf5;" horiz-adv-x="1229" 
d="M846 598q0 33 -35 33h-393q-33 0 -33 -33v-393q0 -35 33 -35h393q35 0 35 35v393zM1016 205q0 -86 -60 -146q-59 -59 -145 -59h-393q-85 0 -146 59q-59 61 -59 146v393q0 86 59 145q60 60 146 60h393q86 0 145 -60q60 -59 60 -145v-393v0zM922 973q-80 -86 -205 -86
q-45 0 -103 43t-102 43q-122 0 -205 -86v172q84 84 205 84q44 0 102 -43q61 -41 103 -41q125 0 205 84v-170v0z" />
    <glyph glyph-name="uacute" unicode="&#xfa;" horiz-adv-x="1229" 
d="M846 0v51q0 -51 -86 -51h-342q-85 0 -146 59q-59 61 -59 146v598h172v-598q0 -35 33 -35h393q35 0 35 35v598h170v-803h-170zM571 887v86l428 170v-170z" />
    <glyph glyph-name="ugrave" unicode="&#xf9;" horiz-adv-x="1229" 
d="M846 0v51q0 -51 -86 -51h-342q-85 0 -146 59q-59 61 -59 146v598h172v-598q0 -35 33 -35h393q35 0 35 35v598h170v-803h-170zM231 973v170l426 -170v-86z" />
    <glyph glyph-name="ucircumflex" unicode="&#xfb;" horiz-adv-x="1229" 
d="M846 0v51q0 -51 -86 -51h-342q-85 0 -146 59q-59 61 -59 146v598h172v-598q0 -35 33 -35h393q35 0 35 35v598h170v-803h-170zM614 973l-256 -86v86l256 170l256 -170v-86z" />
    <glyph glyph-name="udieresis" unicode="&#xfc;" horiz-adv-x="1229" 
d="M846 0v51q0 -51 -86 -51h-342q-85 0 -146 59q-59 61 -59 146v598h172v-598q0 -35 33 -35h393q35 0 35 35v598h170v-803h-170zM528 1016q0 -54 -37 -91q-36 -38 -90 -38q-53 0 -91 38t-38 91q0 52 38 90q37 37 91 37t90 -37q37 -37 37 -90zM956 1016q0 -53 -38 -91
t-91 -38q-52 0 -90 38q-37 37 -37 91q0 53 37 90t90 37q54 0 91 -37q38 -38 38 -90z" />
    <glyph glyph-name="degree" unicode="&#xb0;" horiz-adv-x="854" 
d="M512 1280q0 18 -7 33.5t-18.5 27t-27 18.5t-33.5 7q-35 0 -59.5 -24.5t-24.5 -61.5q0 -35 24.5 -60.5t59.5 -25.5q18 0 34 7t27.5 18.5t18 27t6.5 33.5zM598 1280q0 -35 -13.5 -65.5t-36.5 -54t-54.5 -37t-67.5 -13.5q-70 0 -120 50t-50 120t50 120t120 50
q36 0 67.5 -13.5t54.5 -37t36.5 -54.5t13.5 -65z" />
    <glyph glyph-name="cent" unicode="&#xa2;" horiz-adv-x="1366" 
d="M631 1161h-135q-35 0 -35 -35v-546q0 -33 35 -33h135v614zM836 342v-172h-205v172h-170q-85 0 -146 59q-59 61 -59 146v614q0 86 59 145q60 60 146 60h170v170h205v-170h274v-205h-274v-614h274v-205h-274z" />
    <glyph glyph-name="bullet" unicode="&#x2022;" horiz-adv-x="1024" 
d="M854 682q0 -142 -100 -242q-104 -98 -242 -98q-141 0 -242 98q-100 100 -100 242q0 143 100 242q100 100 242 100t242 -100q100 -99 100 -242z" />
    <glyph glyph-name="registered" unicode="&#xae;" horiz-adv-x="1300" 
d="M797 645q0 12 -13 12h-280v-139h280q13 0 13 10v117zM778 221l-151 219h-123v-219h-78v512h371q15 0 29 -6t24.5 -16.5t17 -24.5t6.5 -29v-139q0 -15 -6.5 -29.5t-17 -25t-24.5 -17t-29 -6.5h-74l151 -219h-96zM1044 477q0 163 -116 279q-116 114 -277 114
q-162 0 -280 -114q-115 -115 -115 -279q0 -162 115 -276q118 -115 280 -115t277 115q116 113 116 276zM1130 477q0 -196 -141 -338q-142 -139 -338 -139q-197 0 -340 139q-141 142 -141 338q0 198 141 338q142 141 340 141q197 0 338 -141q141 -140 141 -338z" />
    <glyph glyph-name="copyright" unicode="&#xa9;" horiz-adv-x="1300" 
d="M504 221q-33 0 -55.5 22.5t-22.5 55.5v358q0 33 22.5 54.5t55.5 21.5h370v-76h-358q-12 0 -12 -12v-334q0 -12 12 -12h358v-78h-370zM1044 477q0 163 -116 279q-116 114 -277 114q-162 0 -280 -114q-115 -115 -115 -279q0 -162 115 -276q118 -115 280 -115t277 115
q116 113 116 276zM1130 477q0 -196 -141 -338q-142 -139 -338 -139q-197 0 -340 139q-141 142 -141 338q0 198 141 338q142 141 340 141q197 0 338 -141q141 -140 141 -338z" />
    <glyph glyph-name="trademark" unicode="&#x2122;" horiz-adv-x="1325" 
d="M1079 854v422q0 12 -12 12h-147q-13 0 -13 -12v-422h-78v422q0 12 -12 12h-147q-13 0 -13 -12v-422h-77v434h-179v-434h-77v434h-154v78h641q15 0 35 -18q20 -17 20 -33q0 16 20 33q21 18 40 18h153q31 0 53.5 -23.5t22.5 -54.5v-434h-76z" />
    <glyph glyph-name="acute" unicode="&#xb4;" horiz-adv-x="938" 
d="M256 1450v86l426 170v-170z" />
    <glyph glyph-name="dieresis" unicode="&#xa8;" horiz-adv-x="1194" 
d="M512 1579q0 -53 -38 -91t-89 -38q-53 0 -91 38t-38 91q0 52 38 90q37 37 91 37q52 0 89 -37q38 -38 38 -90zM938 1579q0 -54 -37 -91q-38 -38 -90 -38q-53 0 -91 38t-38 91q0 52 38 90q37 37 91 37q53 0 90 -37t37 -90z" />
    <glyph glyph-name="AE" unicode="&#xc6;" horiz-adv-x="1878" 
d="M836 1126q0 35 -33 35h-307q-35 0 -35 -35v-444h375v444zM836 0v477h-375v-477h-205v1161q0 86 59 145q60 60 146 60h375q35 0 65 -14q37 -16 37 -47q0 32 39 47q30 14 63 14h582v-205h-547q-35 0 -35 -35v-342h410v-204h-410v-340q0 -35 35 -35h547v-205h-786z" />
    <glyph glyph-name="Oslash" unicode="&#xd8;" 
d="M1245 969l-665 -764h632q33 0 33 35v729zM496 1161q-35 0 -35 -35v-729l665 764h-630zM1448 1198q1 -5 1.5 -9.5t0.5 -8.5v-19v-956q0 -86 -60 -146q-59 -59 -145 -59h-784q-28 0 -53 6l-66 -72l-154 152l72 82q-4 17 -4 37v956q0 86 59 145q60 60 146 60h784q29 0 53 -8
l68 76l154 -154z" />
    <glyph glyph-name="plusminus" unicode="&#xb1;" horiz-adv-x="1194" 
d="M256 0v170h682v-170h-682zM682 598v-256h-170v256h-256v170h256v256h170v-256h256v-170h-256z" />
    <glyph glyph-name="yen" unicode="&#xa5;" horiz-adv-x="1366" 
d="M834 717h360v-205h-410v-137h410v-205h-410v-170h-204v170h-410v205h410v137h-410v205h362l-446 649h256l340 -498l342 498h256z" />
    <glyph glyph-name="ae" unicode="&#xe6;" horiz-adv-x="1860" 
d="M846 385l-391 -117q-70 -19 -70 -65q0 -33 33 -33h393q35 0 35 35v180zM1102 0q-86 0 -86 51v-51h-170v51q0 -51 -86 -51h-342q-85 0 -146 59q-59 61 -59 146v61q0 87 96 119l537 172v23q0 51 -35 51h-393q-33 0 -33 -33v-86h-172v86q0 86 59 145q60 60 146 60h393
q39 0 76 -19q43 -22 43 -55q0 35 45 55q32 19 76 19h391q86 0 145 -60q60 -59 60 -145v-78q0 -86 -60 -146q-59 -59 -145 -59h-307v172h307q31 0 37 43q-2 -10 -2 68q0 33 -35 33h-391q-35 0 -35 -33v-393q0 -35 35 -35h596v-170h-545z" />
    <glyph glyph-name="oslash" unicode="&#xf8;" horiz-adv-x="1331" 
d="M897 528l-358 -358h323q35 0 35 35v323zM469 631q-33 0 -33 -33v-326l359 359h-326zM1049 682q18 -41 18 -84v-393q0 -86 -60 -146q-59 -59 -145 -59h-393q-45 0 -84 18l-70 -67l-102 100l70 70q-19 38 -19 84v393q0 86 59 145q60 60 146 60h393q45 0 84 -19l70 70
l102 -102z" />
    <glyph glyph-name="questiondown" unicode="&#xbf;" horiz-adv-x="1442" 
d="M418 -340q-86 0 -146 60q-59 59 -59 145v442q0 58 40 97q40 40 97 40h598q33 0 33 33v172h205v-274q0 -56 -40 -96q-41 -39 -95 -39h-598q-35 0 -35 -35v-305q0 -35 35 -35h733v-205h-768zM981 819v205h205v-205h-205z" />
    <glyph glyph-name="exclamdown" unicode="&#xa1;" horiz-adv-x="717" 
d="M256 -340v989h205v-989h-205zM256 819v205h205v-205h-205z" />
    <glyph glyph-name="guillemotleft" unicode="&#xab;" horiz-adv-x="1417" 
d="M512 256l-256 426l256 428h240l-256 -428l256 -426h-240zM922 256l-256 426l256 428h239l-256 -428l256 -426h-239z" />
    <glyph glyph-name="guillemotright" unicode="&#xbb;" horiz-adv-x="1417" 
d="M496 256h-240l256 426l-256 428h240l256 -428zM905 256h-239l256 426l-256 428h239l256 -428z" />
    <glyph glyph-name="ellipsis" unicode="&#x2026;" horiz-adv-x="1296" 
d="M256 0v205h205v-205h-205zM547 0v205h205v-205h-205zM836 0v205h204v-205h-204z" />
    <glyph glyph-name="nonbreakingspace" unicode="&#xa0;" horiz-adv-x="768" 
 />
    <glyph glyph-name="Agrave" unicode="&#xc0;" 
d="M1245 1126q0 35 -33 35h-716q-35 0 -35 -35v-444h784v444zM1245 0v477h-784v-477h-205v1161q0 86 59 145q60 60 146 60h784q86 0 145 -60q60 -59 60 -145v-1161h-205zM385 1536v170l426 -170v-86z" />
    <glyph glyph-name="Atilde" unicode="&#xc3;" 
d="M1245 1126q0 35 -33 35h-716q-35 0 -35 -35v-444h784v444zM1245 0v477h-784v-477h-205v1161q0 86 59 145q60 60 146 60h784q86 0 145 -60q60 -59 60 -145v-1161h-205zM1161 1536q-80 -86 -205 -86q-46 0 -102 43q-58 43 -102 43q-122 0 -205 -86v172q84 84 205 84
q44 0 102 -43q59 -41 102 -41q125 0 205 84v-170v0z" />
    <glyph glyph-name="Otilde" unicode="&#xd5;" 
d="M1245 1126q0 35 -33 35h-716q-35 0 -35 -35v-886q0 -35 35 -35h716q33 0 33 35v886zM1450 205q0 -86 -60 -146q-59 -59 -145 -59h-784q-85 0 -146 59q-59 61 -59 146v956q0 86 59 145q60 60 146 60h784q86 0 145 -60q60 -59 60 -145v-956v0zM1161 1536q-80 -86 -205 -86
q-46 0 -102 43q-58 43 -102 43q-122 0 -205 -86v172q84 84 205 84q44 0 102 -43q59 -41 102 -41q125 0 205 84v-170v0z" />
    <glyph glyph-name="OE" unicode="&#x152;" horiz-adv-x="1878" 
d="M836 1126q0 35 -33 35h-307q-35 0 -35 -35v-886q0 -35 35 -35h307q33 0 33 35v886zM1040 0q-33 0 -63 14q-39 15 -39 47q0 -32 -37 -47q-30 -14 -65 -14h-375q-85 0 -146 59q-59 61 -59 146v956q0 86 59 145q60 60 146 60h375q35 0 65 -14q37 -16 37 -47q0 32 39 47
q30 14 63 14h582v-205h-547q-35 0 -35 -35v-342h410v-204h-410v-340q0 -35 35 -35h547v-205h-582z" />
    <glyph glyph-name="oe" unicode="&#x153;" horiz-adv-x="1860" 
d="M846 598q0 33 -35 33h-393q-33 0 -33 -33v-393q0 -35 33 -35h393q35 0 35 35v393zM1051 0q-40 0 -76 16q-45 21 -45 58q0 -37 -43 -58q-36 -16 -76 -16h-393q-85 0 -146 59q-59 61 -59 146v393q0 86 59 145q60 60 146 60h393q42 0 76 -19q43 -22 43 -55q0 35 45 55
q32 19 76 19h391q86 0 145 -60q60 -59 60 -145v-78q0 -86 -60 -146q-59 -59 -145 -59h-307v172h307q31 0 37 43q-2 -10 -2 68q0 33 -35 33h-391q-35 0 -35 -33v-393q0 -35 35 -35h596v-170h-596z" />
    <glyph glyph-name="quotedblleft" unicode="&#x201c;" horiz-adv-x="989" 
d="M256 989v377h170v-86h-84v-86h119v-205h-205zM528 989v377h172v-86h-86v-86h119v-205h-205z" />
    <glyph glyph-name="quotedblright" unicode="&#x201d;" horiz-adv-x="989" 
d="M291 989v86h84v86h-119v205h205v-377h-170zM563 989v86h86v86h-121v205h205v-377h-170z" />
    <glyph glyph-name="quoteleft" unicode="&#x2018;" horiz-adv-x="717" 
d="M256 989v377h170v-86h-84v-86h119v-205h-205z" />
    <glyph glyph-name="quoteright" unicode="&#x2019;" horiz-adv-x="717" 
d="M291 989v86h84v86h-119v205h205v-377h-170z" />
    <glyph glyph-name="divide" unicode="&#xf7;" horiz-adv-x="1194" 
d="M682 426q0 -35 -24.5 -59.5t-59.5 -24.5q-37 0 -61.5 24.5t-24.5 59.5q0 37 24.5 61.5t61.5 24.5q35 0 59.5 -24.5t24.5 -61.5zM256 598v170h682v-170h-682zM682 938q0 -35 -24.5 -59.5t-59.5 -24.5q-37 0 -61.5 24.5t-24.5 59.5q0 37 24.5 61.5t61.5 24.5
q35 0 59.5 -24.5t24.5 -61.5z" />
    <glyph glyph-name="ydieresis" unicode="&#xff;" horiz-adv-x="1229" 
d="M1016 -135q0 -87 -60 -145q-59 -60 -145 -60h-426v172h426q35 0 35 33v186q-2 -51 -86 -51h-342q-85 0 -146 59q-59 61 -59 146v598h172v-598q0 -35 33 -35h393q35 0 35 35v598h170v-938v0zM528 1016q0 -54 -37 -91q-36 -38 -90 -38q-53 0 -91 38t-38 91q0 52 38 90
q37 37 91 37t90 -37q37 -37 37 -90zM956 1016q0 -53 -38 -91t-91 -38q-52 0 -90 38q-37 37 -37 91q0 53 37 90t90 37q54 0 91 -37q38 -38 38 -90z" />
    <glyph glyph-name="Ydieresis" unicode="&#x178;" horiz-adv-x="1366" 
d="M784 649v-649h-204v649l-494 717h256l340 -498l342 498h256zM598 1579q0 -53 -38 -91t-91 -38q-52 0 -90 38q-37 37 -37 91q0 53 37 90t90 37q54 0 91 -37q38 -38 38 -90zM1024 1579q0 -53 -38 -91t-89 -38q-53 0 -91 38t-38 91q0 52 38 90q37 37 91 37q52 0 89 -37
q38 -38 38 -90z" />
    <glyph glyph-name="guilsinglleft" unicode="&#x2039;" horiz-adv-x="1008" 
d="M512 256l-256 426l256 428h240l-256 -428l256 -426h-240z" />
    <glyph glyph-name="guilsinglright" unicode="&#x203a;" horiz-adv-x="1008" 
d="M496 256h-240l256 426l-256 428h240l256 -428z" />
    <glyph glyph-name="quotesinglbase" unicode="&#x201a;" horiz-adv-x="717" 
d="M291 -168v84h84v84h-119v205h205v-373h-170z" />
    <glyph glyph-name="quotedblbase" unicode="&#x201e;" horiz-adv-x="989" 
d="M291 -168v84h84v84h-119v205h205v-373h-170zM563 -168v84h86v84h-121v205h205v-373h-170z" />
    <glyph glyph-name="perthousand" unicode="&#x2030;" horiz-adv-x="2355" 
d="M1417 444q0 33 -35 33h-204q-35 0 -35 -33v-204q0 -35 35 -35h204q35 0 35 35v204zM733 1126q0 35 -33 35h-204q-35 0 -35 -35v-204q0 -35 35 -35h204q33 0 33 35v204zM1894 444q0 33 -34 33h-205q-33 0 -33 -33v-204q0 -35 33 -35h205q34 0 34 35v204zM2099 205
q0 -86 -60 -146q-59 -59 -145 -59h-272q-57 0 -102 27q-45 -27 -103 -27h-274q-79 0 -144 59q-61 61 -61 146v272q0 10 1 20.5t3 20.5l-414 -518h-272l559 700q-41 -18 -82 -18h-272q-85 0 -146 61q-59 65 -59 144v274q0 86 59 145q60 60 146 60h272q86 0 145 -60
q60 -59 60 -145v-274v-21q0 -4 -0.5 -8.5t-1.5 -9.5l412 518h274l-561 -700q42 16 82 16h274q58 0 103 -27q45 27 102 27h272q86 0 145 -60q60 -59 60 -145v-272v0z" />
    <glyph glyph-name="Acircumflex" unicode="&#xc2;" 
d="M1245 1126q0 35 -33 35h-716q-35 0 -35 -35v-444h784v444zM1245 0v477h-784v-477h-205v1161q0 86 59 145q60 60 146 60h784q86 0 145 -60q60 -59 60 -145v-1161h-205zM854 1536l-256 -86v86l256 170l256 -170v-86z" />
    <glyph glyph-name="Ecircumflex" unicode="&#xca;" 
d="M461 0q-85 0 -146 59q-59 61 -59 146v956q0 86 59 145q60 60 146 60h989v-205h-954q-35 0 -35 -35v-342h819v-204h-819v-340q0 -35 35 -35h954v-205h-989zM854 1536l-256 -86v86l256 170l256 -170v-86z" />
    <glyph glyph-name="Aacute" unicode="&#xc1;" 
d="M1245 1126q0 35 -33 35h-716q-35 0 -35 -35v-444h784v444zM1245 0v477h-784v-477h-205v1161q0 86 59 145q60 60 146 60h784q86 0 145 -60q60 -59 60 -145v-1161h-205zM897 1450v86l426 170v-170z" />
    <glyph glyph-name="Edieresis" unicode="&#xcb;" 
d="M461 0q-85 0 -146 59q-59 61 -59 146v956q0 86 59 145q60 60 146 60h989v-205h-954q-35 0 -35 -35v-342h819v-204h-819v-340q0 -35 35 -35h954v-205h-989zM768 1579q0 -53 -38 -91t-89 -38q-53 0 -91 38t-38 91q0 52 38 90q37 37 91 37q52 0 89 -37q38 -38 38 -90z
M1194 1579q0 -54 -37 -91q-38 -38 -90 -38q-53 0 -91 38t-38 91q0 52 38 90q37 37 91 37q53 0 90 -37t37 -90z" />
    <glyph glyph-name="Egrave" unicode="&#xc8;" horiz-adv-x="1622" 
d="M461 0q-85 0 -146 59q-59 61 -59 146v956q0 86 59 145q60 60 146 60h989v-205h-954q-35 0 -35 -35v-342h819v-204h-819v-340q0 -35 35 -35h954v-205h-989zM385 1536v170l426 -170v-86z" />
    <glyph glyph-name="Iacute" unicode="&#xcd;" horiz-adv-x="717" 
d="M256 0v1366h205v-1366h-205zM256 1450v86l426 170v-170z" />
    <glyph glyph-name="Icircumflex" unicode="&#xce;" horiz-adv-x="717" 
d="M256 0v1366h205v-1366h-205zM358 1536l-256 -86v86l256 170l256 -170v-86z" />
    <glyph glyph-name="Idieresis" unicode="&#xcf;" horiz-adv-x="717" 
d="M256 0v1366h205v-1366h-205zM272 1579q0 -54 -37 -91q-36 -38 -90 -38q-53 0 -91 38t-38 91q0 52 38 90q37 37 91 37t90 -37q37 -37 37 -90zM700 1579q0 -53 -38 -91t-91 -38q-52 0 -90 38q-37 37 -37 91q0 53 37 90t90 37q54 0 91 -37q38 -38 38 -90z" />
    <glyph glyph-name="Igrave" unicode="&#xcc;" horiz-adv-x="717" 
d="M256 0v1366h205v-1366h-205zM35 1536v170l426 -170v-86z" />
    <glyph glyph-name="Oacute" unicode="&#xd3;" 
d="M1245 1126q0 35 -33 35h-716q-35 0 -35 -35v-886q0 -35 35 -35h716q33 0 33 35v886zM1450 205q0 -86 -60 -146q-59 -59 -145 -59h-784q-85 0 -146 59q-59 61 -59 146v956q0 86 59 145q60 60 146 60h784q86 0 145 -60q60 -59 60 -145v-956v0zM897 1450v86l426 170v-170z
" />
    <glyph glyph-name="Ocircumflex" unicode="&#xd4;" 
d="M1245 1126q0 35 -33 35h-716q-35 0 -35 -35v-886q0 -35 35 -35h716q33 0 33 35v886zM1450 205q0 -86 -60 -146q-59 -59 -145 -59h-784q-85 0 -146 59q-59 61 -59 146v956q0 86 59 145q60 60 146 60h784q86 0 145 -60q60 -59 60 -145v-956v0zM854 1536l-256 -86v86
l256 170l256 -170v-86z" />
    <glyph glyph-name="Ograve" unicode="&#xd2;" 
d="M1245 1126q0 35 -33 35h-716q-35 0 -35 -35v-886q0 -35 35 -35h716q33 0 33 35v886zM1450 205q0 -86 -60 -146q-59 -59 -145 -59h-784q-85 0 -146 59q-59 61 -59 146v956q0 86 59 145q60 60 146 60h784q86 0 145 -60q60 -59 60 -145v-956v0zM385 1536v170l426 -170v-86z
" />
    <glyph glyph-name="Uacute" unicode="&#xda;" 
d="M1450 205q0 -86 -60 -146q-59 -59 -145 -59h-784q-85 0 -146 59q-59 61 -59 146v1161h205v-1126q0 -35 35 -35h716q33 0 33 35v1126h205v-1161v0zM897 1450v86l426 170v-170z" />
    <glyph glyph-name="Ucircumflex" unicode="&#xdb;" 
d="M1450 205q0 -86 -60 -146q-59 -59 -145 -59h-784q-85 0 -146 59q-59 61 -59 146v1161h205v-1126q0 -35 35 -35h716q33 0 33 35v1126h205v-1161v0zM854 1536l-256 -86v86l256 170l256 -170v-86z" />
    <glyph glyph-name="Ugrave" unicode="&#xd9;" 
d="M1450 205q0 -86 -60 -146q-59 -59 -145 -59h-784q-85 0 -146 59q-59 61 -59 146v1161h205v-1126q0 -35 35 -35h716q33 0 33 35v1126h205v-1161v0zM385 1536v170l426 -170v-86z" />
    <glyph glyph-name="circumflex" unicode="&#x2c6;" horiz-adv-x="1024" 
d="M512 1536l-256 -86v86l256 170l256 -170v-86z" />
    <glyph glyph-name="tilde" unicode="&#x2dc;" horiz-adv-x="1126" 
d="M870 1536q-80 -86 -204 -86q-45 0 -103 43t-102 43q-122 0 -205 -86v172q84 84 205 84q44 0 102 -43q61 -41 103 -41q124 0 204 84v-170v0z" />
    <glyph glyph-name="space" unicode=" " horiz-adv-x="768" 
 />
    <glyph glyph-name="Scaron" unicode="&#x160;" 
d="M1450 205q0 -86 -60 -146q-59 -59 -145 -59h-989v205h956q33 0 33 35v307q0 33 -33 33h-819q-56 0 -97 41q-40 40 -40 96v444q0 86 59 145q60 60 146 60h989v-205h-954q-35 0 -35 -35v-307q0 -35 35 -35h819q55 0 95 -40q40 -39 40 -95v-444v0zM854 1450l-256 172v84
l256 -84l256 84v-84z" />
    <glyph glyph-name="scaron" unicode="&#x161;" horiz-adv-x="1229" 
d="M1016 205q0 -86 -60 -146q-59 -59 -145 -59h-598v170h598q35 0 35 35v78q0 32 -35 32h-461q-57 0 -97 40t-40 98v145q0 86 59 145q60 60 146 60h598v-172h-598q-33 0 -33 -33v-78q0 -33 33 -33h461q56 0 97 -41q40 -40 40 -96v-145v0zM614 887l-256 172v84l256 -84
l256 84v-84z" />
    <glyph glyph-name="Yacute" unicode="&#xdd;" horiz-adv-x="1366" 
d="M784 649v-649h-204v649l-494 717h256l340 -498l342 498h256zM725 1450v86l428 170v-170z" />
    <glyph glyph-name="yacute" unicode="&#xfd;" horiz-adv-x="1229" 
d="M1016 -135q0 -87 -60 -145q-59 -60 -145 -60h-426v172h426q35 0 35 33v186q-2 -51 -86 -51h-342q-85 0 -146 59q-59 61 -59 146v598h172v-598q0 -35 33 -35h393q35 0 35 35v598h170v-938v0zM571 887v86l428 170v-170z" />
    <glyph glyph-name="minus" unicode="&#xad;" horiz-adv-x="1194" 
d="M256 598v170h682v-170h-682z" />
    <glyph glyph-name="minus" unicode="&#x2212;" horiz-adv-x="1194" 
d="M256 598v170h682v-170h-682z" />
    <glyph glyph-name="multiply" unicode="&#xd7;" horiz-adv-x="1116" 
d="M739 381l-180 180l-182 -180l-121 121l180 180l-180 182l121 121l182 -180l180 180l121 -121l-180 -182l180 -180z" />
  </font>
</defs>
</svg>
